同手村二次元导航|绅士导航|漫画导航|动漫导航

  • 常用
  • 站内搜索

二次世界

[MagicStar] DOGENGERS 高校篇 / ドゲンジャーズ~ハイスクール~ EP05 [WEBDL] [1080p] [AMZN]【生】_本子导航网站,2次元黄漫

详细介绍

[MagicStar] DOGENGERS 高校篇 / ドゲンジャーズ~ハイスクール~ EP05 [WEBDL] [1080p] [AMZN]【生】_本子导航网站,2次元黄漫 二次世界 第1张

HD 1080p from Prime Video.
Use CBR bitrate mode.
[MagicStar] DOGENGERS 高校篇 / ドゲンジャーズ~ハイスクール~ EP05 [WEBDL] [1080p] [AMZN]【生】_本子导航网站,2次元黄漫
[MagicStar] DOGENGERS 高校篇 / ドゲンジャーズ~ハイスクール~ EP05 [WEBDL] [1080p] [AMZN]【生】_本子导航网站,2次元黄漫 二次世界 第3张

General Unique ID                      : 212010442846842665714520637353885328836 (0x9F7FB9DDC479FB12662181EB1BAA65C4) Complete name                  : Dogengers.High.School.EP05.1080p.AMZN.WEB-DL.DDP2.0.H.264-MagicStar.mkv Format                         : Matroska Format version                 : Version 4 File size                      : 1.31 GiB Duration                       : 19 min 0 s Overall bit rate mode          : Constant Overall bit rate               : 9 854 kb/s Encoded date                   : UTC 2022-05-08 17:18:06 Writing application            : mkvmerge v50.0.0 ('Awakenings') 64-bit Writing library                : libebml v1.4.0 + libmatroska v1.6.2 Cover                          : Yes Attachments                    : cover.png  Video ID                             : 1 Format                         : AVC Format/Info                    : Advanced Video Codec Format profile                 : [email protected] Format settings                : CABAC / 4 Ref Frames Format settings, CABAC         : Yes Format settings, Reference fra : 4 frames Codec ID                       : V_MPEG4/ISO/AVC Duration                       : 19 min 0 s Bit rate mode                  : Constant Bit rate                       : 10 000 kb/s Width                          : 1 920 pixels Height                         : 1 080 pixels Display aspect ratio           : 16:9 Frame rate mode                : Constant Frame rate                     : 29.970 (29970/1000) FPS Original frame rate            : 29.970 (30000/1001) FPS Color space                    : YUV Chroma subsampling             : 4:2:0 Bit depth                      : 8 bits Scan type                      : Progressive Bits/(Pixel*Frame)             : 0.161 Stream size                    : 1.28 GiB (98%) Default                        : Yes Forced                         : No Color range                    : Limited Color primaries                : BT.709 Transfer characteristics       : BT.709 Matrix coefficients            : BT.709  Audio ID                             : 2 Format                         : E-AC-3 Format/Info                    : Enhanced AC-3 Commercial name                : Dolby Digital Plus Codec ID                       : A_EAC3 Duration                       : 19 min 0 s Bit rate mode                  : Constant Bit rate                       : 224 kb/s Channel(s)                     : 2 channels Channel layout                 : L R Sampling rate                  : 48.0 kHz Frame rate                     : 31.250 FPS (1536 SPF) Compression mode               : Lossy Stream size                    : 30.4 MiB (2%) Language                       : Japanese Service kind                   : Complete Main Default                        : Yes Forced                         : No

Live2D Cubism 4 AE Plugin R5,Live2D的AE插件R5破解版

[MagicStar] DOGENGERS 高校篇 / ドゲンジャーズ~ハイスクール~ EP05 [WEBDL] [1080p] [AMZN]【生】_本子导航网站,2次元黄漫 二次世界 第4张